20190407_LIVE1017777777_242x40.png



編集中(ダウンロードリンクや詳細情報、製品画像を追加予定です。)

目次


VANTRUE X4 レビュー


VANTRUE X4で撮影した走行動画


2019年07月16日に購入して7/21日に届いた。

購入時のファームウェアバージョンはVTX49D.V10となっている。

動画のファイル分割は「なし」「1分」「3分」から選べる。VANTRUE X1 PROでは5分が設定可能だったがなくなっている。
3分に設定した場合の1ファイルあたりのファイル容量は980MBとなっている。
4Kだが、一般的な4Kのビットレートよりは低くなっている。
実際に映像を確認したが、LIVEの印象としてはシャープネスが強いと思う。
LIVEが今回購入するまでに使用していたVANTRUE X1 PROはシャープネスとしてはとても見やすい映像だった。しかし、全体的に映像が青色がかっているので色合いはおかしいが。
VANTRUE X4は実際の映像に近づいたなという印象を持つ。
VANTRUEの製品は頻繁に時刻が進むので、GPSで自動時刻修正ができるとよい。(実際に使用:VANTRUE X1 PRO)


Gセンサーで衝撃を感知するとピロンと音が鳴り、衝撃検知前10秒と衝撃検知後20秒の動画が別フォルダに保存される。
常時録画されているファイルとは別に保存されるのでそのシーンをあとで見つけやすい。 初期設定では中になっているが、段差や道路の凹み等があると頻繁にピロンと鳴る。小がおすすめ。


ファイルダウンロード

VANTRUE X4で撮影した映像の元ファイルをダウンロードできます。

購入前の参考にしてください。


ファイルプロパティ

ファイル: H:\DCIM\VIDEO\190721_180900_023_HI.MP4

-----------------------------------------------------------------------
一般情報

ファイルサイズ: 1 027 604 480 bytes (980.00 MB)
再生時間: 00:03:00.45
ビットレート(全般): 45 558 kbit/s
形式: MPEG-4
エンコードアプリ: 
すべてのデータストリーム数: 3
映像ストリーム数: 1
音声ストリーム数: 1

-----------------------------------------------------------------------
映像ストリーム

映像コーデック: AVC
プロファイル: Main@L5.1
ビットレート: 45 000 kbit/s
解像度: 3 840 x 2 160
アスペクト比率: 16:9
フレーム / 秒: 29.97
スキャンタイプ: プログレッシブ
ピクセル形式: yuv420p(tv
ビット / ピクセル: 0.181
フレーム:~ 5 408
ストリームのサイズ: 967 MB (99%)
エンコードライブラリ: 
映像ストリームIDX: 0

-----------------------------------------------------------------------
音声ストリーム 1
音声コーデック: AAC
プロファイル: LC
ビットレート: 128 kbit/s  CBR
チャンネル: 1
サンプリングレート: 48 000 Hz
サンプル当たりビット: 
サンプル:~ 8 660 640
映像遅延: 0 ms
言語: English
ストリームのサイズ: 
エンコードライブラリ: 
音声ストリームIDX: 1

-----------------------------------------------------------------------
データストリーム:   (FFmpeg)
   1: Stream #0:0(eng) - Video: h264 (Main) (avc1 / 0x31637661), yuv420p(tv, bt709), 3840x2160, 44946 kb/s, 29.97 fps, 29.97 tbr, 30k tbn, 59.94 tbc (default)
   2: Stream #0:1(eng) - Audio: aac (LC) (mp4a / 0x6134706D), 48000 Hz, mono, fltp, 128 kb/s (default)
   3: Stream #0:2(eng) - Subtitle: mov_text (text / 0x74786574), 0 kb/s (default)

-----------------------------------------------------------------------
MediaInfo

General
Complete name                            : H:\DCIM\VIDEO\190721_180900_023_HI.MP4
Format                                   : MPEG-4
Format profile                           : JVT
Codec ID                                 : avc1 (avc1/isom)
File size                                : 980 MiB
Duration                                 : 3 min 0 s
Overall bit rate mode                    : Variable
Overall bit rate                         : 45.6 Mb/s
Encoded date                             : UTC 2019-07-21 18:08:50
Tagged date                              : UTC 2019-07-21 18:08:50

Video
ID                                       : 1
Format                                   : AVC
Format/Info                              : Advanced Video Codec
Format profile                           : Main@L5.1
Format settings, CABAC                   : Yes
Format settings, ReFrames                : 1 frame
Format settings, GOP                     : M=1, N=32
Codec ID                                 : avc1
Codec ID/Info                            : Advanced Video Coding
Duration                                 : 3 min 0 s
Bit rate mode                            : Variable
Bit rate                                 : 45.0 Mb/s
Width                                    : 3 840 pixels
Height                                   : 2 160 pixels
Display aspect ratio                     : 16:9
Frame rate mode                          : Constant
Frame rate                               : 29.970 (30000/1001) FPS
Color space                              : YUV
Chroma subsampling                       : 4:2:0
Bit depth                                : 8 bits
Scan type                                : Progressive
Bits/(Pixel*Frame)                       : 0.181
Stream size                              : 967 MiB (99%)
Title                                    : Ambarella AVC
Language                                 : English
Encoded date                             : UTC 2019-07-21 18:08:50
Tagged date                              : UTC 2019-07-21 18:08:50
Color range                              : Limited
Color primaries                          : BT.709
Transfer characteristics                 : BT.709
Matrix coefficients                      : BT.709

Audio
ID                                       : 2
Format                                   : AAC
Format/Info                              : Advanced Audio Codec
Format profile                           : LC
Codec ID                                 : 40
Duration                                 : 3 min 0 s
Source duration                          : 3 min 0 s
Bit rate mode                            : Constant
Nominal bit rate                         : 48.0 kb/s
Channel(s)                               : 1 channel
Channel positions                        : Front: C
Sampling rate                            : 48.0 kHz
Frame rate                               : 46.875 FPS (1024 spf)
Compression mode                         : Lossy
Source stream size                       : 2.75 MiB (0%)
Title                                    : Ambarella AAC
Language                                 : English
Encoded date                             : UTC 2019-07-21 18:08:50
Tagged date                              : UTC 2019-07-21 18:08:50

Text
ID                                       : 3
Format                                   : Timed Text
Codec ID                                 : text
Duration                                 : 2 min 59 s
Source duration                          : 2 min 59 s
Bit rate mode                            : Variable
Source stream size                       : 15.5 KiB (0%)
Title                                    : Ambarella EXT
Language                                 : English
Forced                                   : No
Encoded date                             : UTC 2019-07-21 18:08:50
Tagged date                              : UTC 2019-07-21 18:08:50

-----------------------------------------------------------------------
FFprobe

FORMAT
  FORMAT INFO
    filename=H:\DCIM\VIDEO\190721_180900_023_HI.MP4
    nb_streams=3
    nb_programs=0
    format_name=mov,mp4,m4a,3gp,3g2,mj2
    format_long_name=QuickTime / MOV
    start_time=0.000000
    duration=180.446917
    size=1027604480
    bit_rate=45558195
    probe_score=100
  FORMAT TAGS
    major_brand=avc1
    minor_version=0
    compatible_brands=avc1isom
    creation_time=2019-07-21T18:08:50.000000Z
    original_format=VANTRUE
    comment=VTX49D.V10

STREAMS (3) 
  STREAM 1
    STREAM INFO
        index=0
        codec_name=h264
        codec_long_name=H.264 / AVC / MPEG-4 AVC / MPEG-4 part 10
        profile=Main
        codec_type=video
        codec_time_base=1001/60000
        codec_tag_string=avc1
        codec_tag=0x31637661
        width=3840
        height=2160
        coded_width=3840
        coded_height=2160
        has_b_frames=0
        sample_aspect_ratio=0:1
        display_aspect_ratio=0:1
        pix_fmt=yuv420p
        level=51
        color_range=tv
        color_space=bt709
        color_transfer=bt709
        color_primaries=bt709
        chroma_location=left
        field_order=unknown
        timecode=N/A
        refs=1
        is_avc=true
        nal_length_size=4
        id=N/A
        r_frame_rate=30000/1001
        avg_frame_rate=30000/1001
        time_base=1/30000
        start_pts=0
        start_time=0.000000
        duration_ts=5413408
        duration=180.446933
        bit_rate=44946781
        max_bit_rate=N/A
        bits_per_raw_sample=8
        nb_frames=5408
        nb_read_frames=N/A
        nb_read_packets=N/A
    STREAM DISPOSITION
        default=1
        dub=0
        original=0
        comment=0
        lyrics=0
        karaoke=0
        forced=0
        hearing_impaired=0
        visual_impaired=0
        clean_effects=0
        attached_pic=0
        timed_thumbnails=0
    STREAM TAGS
        creation_time=2019-07-21T18:08:50.000000Z
        language=eng
        handler_name=
        encoder=Ambarella AVC encoder

  STREAM 2
    STREAM INFO
        index=1
        codec_name=aac
        codec_long_name=AAC (Advanced Audio Coding)
        profile=LC
        codec_type=audio
        codec_time_base=1/48000
        codec_tag_string=mp4a
        codec_tag=0x6134706d
        sample_fmt=fltp
        sample_rate=48000
        channels=1
        channel_layout=mono
        bits_per_sample=0
        id=N/A
        r_frame_rate=0/0
        avg_frame_rate=0/0
        time_base=1/48000
        start_pts=665
        start_time=0.013854
        duration_ts=8660633
        duration=180.429854
        bit_rate=128000
        max_bit_rate=48000
        bits_per_raw_sample=N/A
        nb_frames=8457
        nb_read_frames=N/A
        nb_read_packets=N/A
    STREAM DISPOSITION
        default=1
        dub=0
        original=0
        comment=0
        lyrics=0
        karaoke=0
        forced=0
        hearing_impaired=0
        visual_impaired=0
        clean_effects=0
        attached_pic=0
        timed_thumbnails=0
    STREAM TAGS
        creation_time=2019-07-21T18:08:50.000000Z
        language=eng
        handler_name=

  STREAM 3
    STREAM INFO
        index=2
        codec_name=mov_text
        codec_long_name=MOV text
        profile=unknown
        codec_type=subtitle
        codec_time_base=0/1
        codec_tag_string=text
        codec_tag=0x74786574
        width=N/A
        height=N/A
        id=N/A
        r_frame_rate=0/0
        avg_frame_rate=0/0
        time_base=1/1000
        start_pts=0
        start_time=0.000000
        duration_ts=180447
        duration=180.447000
        bit_rate=710
        max_bit_rate=N/A
        bits_per_raw_sample=N/A
        nb_frames=179
        nb_read_frames=N/A
        nb_read_packets=N/A
    STREAM DISPOSITION
        default=1
        dub=0
        original=0
        comment=0
        lyrics=0
        karaoke=0
        forced=0
        hearing_impaired=0
        visual_impaired=0
        clean_effects=0
        attached_pic=0
        timed_thumbnails=0
    STREAM TAGS
        creation_time=2019-07-21T18:08:50.000000Z
        language=eng
        handler_name=



-----------------------------------------------------------------------